#TITLE:Tinh Den Roi Di;
#SUBTITLE:;
#ARTIST:Thu Thuy;
#TITLETRANSLIT:;
#SUBTITLETRANSLIT:;
#ARTISTTRANSLIT:Thu Thuy;
#CREDIT:;
#BANNER:Tinh Den Roi Di-bn.png;
#BACKGROUND:Tinh Den Roi Di-bg.png;
#LYRICSPATH:;
#CDTITLE:pm4cd.png;
#MUSIC:Tinh Den Roi Di.mp3;
#OFFSET:0.000;
#SAMPLESTART:10.450;
#SAMPLELENGTH:20.000;
#SELECTABLE:YES;
#BPMS:0.000=100.220;
#STOPS:;
#BGCHANGES:;
// cache tags:
#FIRSTBEAT:13.500;
#LASTBEAT:340.500;
#SONGFILENAME:Songs/Music V.I.P ^_^/Tinh Den Roi Di/Tinh Den Roi Di.sm;
#HASMUSIC:1;
#HASBANNER:1;
#MUSICLENGTH:203.640;
// end cache tags

//---------------dance-single - ----------------
#NOTES:
     dance-single:
     :
     Hard:
     11:
     1.000,1.000,1.000,0.349,0.641,872.000,458.000,71.000,0.000,148.000:
0000
0000
0000
0000
,
0000
0000
0000
0000
,
0000
0000
0000
0000
,
0000
0000
0000
0000
0000
0000
0110
0000
1000
0100
0011
0000
0110
0000
0001
0010
,
1100
0010
1100
0001
0110
1000
0011
0000
0011
0000
1011
0000
0010
0000
1100
0000
,
1100
0000
1011
0000
0000
0000
0101
0000
0101
0000
0111
0000
1000
0000
1010
0100
,
1010
1110
0000
0110
0110
1101
0001
1100
,
1100
0000
0111
0000
0000
0000
0011
0000
0011
0000
1011
0000
0100
0000
0101
0001
,
0101
0000
1110
0000
0010
0000
1011
0000
0000
0100
0011
0000
1000
0000
0011
0000
,
0110
0000
1001
0000
0010
0000
1100
0000
0000
0010
0101
0000
0000
0000
0011
0100
,
1001
0000
0101
0000
0011
0000
1001
0000
0000
0100
1100
0000
0000
0000
0110
0000
,
0011
0000
1100
0000
0000
0000
0011
0000
0000
0100
0101
0000
0000
0000
0011
0100
,
1010
0000
0011
0000
1010
0000
1001
0000
0000
1000
1001
0000
0010
0000
0110
0000
,
0011
0000
1100
0000
0001
0000
0110
0000
0000
0110
1001
0000
0000
0000
1010
0001
,
1010
0000
0011
0000
0001
0000
0110
0000
0000
0100
0101
0000
0000
0000
1001
0000
,
0110
0000
0101
0000
0000
0000
0110
0000
0000
0100
1010
0000
0000
0000
0011
0100
,
1001
0000
0001
0000
0100
0000
0101
0010
0110
1000
0101
0010
1000
0001
0011
0100
,
0011
1000
1100
0010
0001
0010
1001
0100
0010
0101
1010
0100
0011
0100
1000
0011
,
0101
1000
0010
0100
0001
0010
0101
1000
0010
1100
0011
1000
0100
0010
1001
0010
,
1100
0010
0110
0001
1000
0010
0101
0010
0100
0110
1001
0010
1010
0100
0011
0001
,
1010
0100
0011
0000
2200
0000
3311
0000
0011
0000
1110
0000
1000
0000
0110
0000
,
0110
0000
1011
0000
0100
0000
1001
0000
1001
0000
0111
0000
1000
0000
0110
1001
,
0110
1101
0010
0101
0101
1110
1000
1010
,
1010
0000
0111
0000
0100
0000
0110
0000
0110
0000
1011
0000
0100
0000
0011
0110
,
1100
0000
0111
0000
1000
0000
1011
0000
0000
0011
1100
0000
0010
0000
1001
0000
,
0110
0000
1100
0000
0010
0000
1001
0000
0000
1010
0101
0000
0010
0000
1100
0110
,
0011
0000
0100
0000
0010
0000
1101
0000
0000
0011
1100
0000
0001
0000
0110
0000
,
1100
0000
1001
0000
0100
0000
0011
0000
0000
0110
1001
0000
0010
0000
0110
0001
,
1010
0000
0100
0000
0001
0000
1110
0000
0000
0101
0011
0000
1000
0000
0101
0000
,
0011
0000
1100
0000
0010
0000
1001
0000
0000
1100
0110
0000
1000
0000
0101
0110
,
1010
0000
0001
0000
0100
0000
1011
0000
0000
0110
1001
0000
0100
0000
0011
0000
,
0110
0000
1100
0000
0010
0000
1110
0000
0000
0110
0101
0000
0010
0000
1100
1010
,
1100
0000
0001
0000
0010
0000
1101
1000
0010
0011
0101
0010
1000
0100
1010
0001
,
0101
1000
0011
1000
0010
0100
1001
0010
0001
0110
1100
0001
1010
0100
1000
0101
,
1100
0010
0001
0100
1000
0100
0011
0001
0010
0110
1010
0010
0100
0001
1100
0001
,
0110
1000
0011
0100
1000
0001
1010
0100
1000
0011
1100
0001
1001
0100
1000
0101
,
0110
0100
0022
0000
0000
0000
1133
0000
0110
0000
1011
0000
0100
0000
0011
0000
,
0110
0000
1101
0000
1000
0000
0110
0000
1001
0000
1110
0000
0001
0000
1001
1100
,
1001
0111
1000
0011
0110
0111
0001
1100
,
0110
0000
1110
0000
0100
0000
0101
0000
1010
0000
0111
0000
0010
0000
0101
0011
,
0101
2022
0000
3133
0010
0001
0010
0200
,
0000
0000
1002
0000
0000
0000
1310
0010
0010
0000
2000
0000
0023
0000
0131
0001
,
0002
0003
3200
0300
0002
0003
0200
0000
0002
0003
0020
0030
2000
0000
0311
0010
,
0010
0000
0002
0000
3023
0000
1130
0000
0010
0010
0101
0000
1000
0100
0011
0100
,
1001
0010
1100
0010
1001
0100
1010
0000
1010
0000
0111
0000
1000
0000
0101
0000
,
0101
0000
1110
0000
0010
0000
1100
0000
1100
0000
1011
0000
0100
0000
0011
0110
,
0011
1101
0001
0110
0110
0111
1000
0110
,
0110
0000
1110
0000
0001
0000
1010
0000
0101
0000
1110
0000
0001
0000
1010
0110
,
0011
0000
1110
0000
0010
0000
0101
1000
0010
0101
1100
0100
0010
0001
0011
0100
,
1100
0001
0110
1000
0100
0010
1101
0010
0100
1001
0110
0010
1000
0010
1101
0010
,
1000
0101
0011
0100
1000
0100
0111
1000
0100
0110
1001
0010
0100
1000
0101
1000
,
0011
0100
1001
0010
1000
0100
1010
0001
0010
1100
0011
0100
0010
1000
0001
1010
,
0011
0100
0010
1000
0100
0010
1101
1000
0010
1010
1001
0100
0001
0100
1010
0100
,
1001
0010
1100
0010
1000
0100
0011
0100
0010
1001
1100
0100
0010
0001
0010
0101
,
1010
0100
0001
0010
0100
1000
0111
1000
0001
0011
1100
1000
0010
0100
1001
0001
,
0110
1000
1001
0001
0100
0010
1100
0010
0100
1100
0101
0010
0001
0010
1000
0110
,
0011
0100
0002
0200
0010
1000
1313
0000
0101
0000
1110
0000
0100
0000
0011
0000
,
1100
0000
1011
0000
0100
0000
1001
0000
0110
0000
1110
0000
1000
0000
0101
0110
,
0101
0111
0001
0110
1001
1110
1000
0110
,
1001
0000
0111
0000
0010
0000
1100
0000
0110
0000
1011
0000
0010
0000
1010
0011
,
1010
0000
1110
0000
0001
0000
1101
0000
0000
0011
1100
0000
0010
0000
0101
0000
,
1010
0000
0101
0000
0010
0000
1100
0000
0000
1001
0110
0000
1000
0000
0011
1010
,
0011
0000
0100
0000
0001
0000
1100
0000
0000
0110
1100
0000
0010
0000
0101
0000
,
0110
0000
1010
0000
0100
0000
0011
0000
0001
0000
0020
0001
2000
0001
0100
0001
,
0100
0001
0100
0001
0100
0001
3131
0000
0000
1100
0110
0000
1000
0000
0101
0000
,
0110
0000
1110
0000
1000
0000
0110
0000
0000
0101
1010
0000
0100
0000
1010
0110
,
1001
0000
0010
0000
1100
0000
0110
0000
0000
1001
0101
0000
0020
0001
2001
0100
,
0132
0010
3210
1000
1003
1000
1311
0000
0000
1010
0101
0000
0010
0000
1100
0101
,
0011
0000
2000
0000
0200
3000
0311
1000
0100
0011
1001
0001
0010
0100
1010
0100
,
0011
0100
1001
1000
0100
0010
0101
0100
1000
0011
1100
0010
1001
0010
0100
1001
,
0101
0100
0001
1000
0100
0010
1100
0100
0001
1001
1010
0100
0001
1000
0110
1000
,
1001
0010
1100
0100
1000
0010
0101
0010
0001
0011
1100
1000
0101
0010
0001
0110
,
1001
0000
0000
0000
1000
0000
0000
0000
0010
0000
0000
0000
0200
0000
0000
0000
0002
0000
0000
0000
0000
0000
0000
0000
2303
0000
0000
0000
3000
0000
0000
0000
0200
0000
0000
0000
0300
0000
0000
0000
0020
0000
0000
0000
0030
0000
0000
0000
0002
0000
0000
0000
0003
0000
0000
0000
0220
0000
0000
0300
0200
0000
0000
0300
,
0200
0000
0000
0000
0000
0000
0000
0000
0032
0000
0000
0000
0000
0000
0000
0000
0300
0000
0000
0000
0000
0000
0000
0003
0002
0000
0000
0000
0003
0000
0000
0000
0020
0000
0000
0000
0030
0000
0000
0000
0200
0000
0000
0000
0300
0000
0000
0000
2000
0000
0000
0000
3000
0000
0000
0000
0200
0000
0000
0000
0300
0000
0000
0000
,
0020
0000
0000
0000
0000
0000
0000
0000
0000
0000
0000
0000
0000
0000
0000
0000
0000
0000
0000
0000
0000
0000
0000
0000
0002
0000
0000
0000
0000
0000
0000
0000
0000
0000
0000
0000
0000
0000
0000
0000
0000
0000
0000
0000
0000
0000
0000
0000
0030
0000
0000
0000
0000
0000
0000
0000
0000
0000
0000
0000
0000
0000
0000
0000
0000
0000
0000
0000
0000
0000
0000
0000
0023
0000
0000
0000
0000
0000
0000
0000
0030
0000
0000
0000
0020
0000
0000
0000
0000
0000
0000
0000
0030
0000
0000
0000
0020
0000
0000
0000
0000
0000
0000
0000
0030
0000
0000
0000
0000
0000
0000
0000
0000
0000
0000
0000
0000
0000
0000
0000
2000
0000
0000
0000
0000
0000
0000
0000
0000
0000
0000
0000
0000
0000
0000
0000
0000
0000
0000
0000
0000
0000
0000
0000
0002
0000
0000
0000
0000
0000
0000
0000
0000
0000
0000
0000
0003
0000
0000
0000
0000
0000
0000
0000
0000
0000
0000
0000
3200
0000
0000
0000
0000
0000
0000
0000
0000
0300
0000
0000
0200
0000
0000
0000
0000
0000
0000
0000
0000
0300
0000
0000
,
0200
0000
0020
0000
0300
0000
0032
0003
0020
0030
0002
0003
0200
0300
2000
0000
,
0020
0000
0000
0000
0000
0000
0000
0000
0002
0000
0000
0000
3000
0000
0000
0000
0230
0000
0000
0000
0000
0000
0000
0303
1111
0000
0000
0000
1000
0000
0000
0000
0111
0000
0000
0000
0010
0000
0000
0000
1011
0000
0000
0000
0010
0000
0000
0000
0001
0000
0000
0000
1000
0000
0000
0000
1101
0000
0000
0000
0001
0000
0000
0000
,
1110
1000
0111
1000
0100
0010
1011
0100
0111
1000
1101
0100
0010
0100
0111
0111
,
0111
0100
1011
1000
0100
0001
1011
0010
0111
1000
1011
0010
0100
1000
1110
0010
,
1101
0001
1011
0010
0100
1000
1101
0010
1110
0100
0111
0010
1000
0100
1101
1101
,
1101
0000
0000
0000
0010
0000
0000
0000
1011
0000
0000
0000
0100
0000
0000
0000
2000
0000
0000
0000
0000
0000
0000
3000
1101
0000
0000
0000
0000
0000
0000
0000
0111
0000
0000
0000
0000
0000
0000
0000
1011
0000
0000
0000
0000
0000
0000
0000
0101
0000
0000
0000
0000
0000
0000
0000
1011
0000
0000
0000
0000
0000
0000
0000
,
1101
0000
1110
0000
0011
0000
1110
0000
0111
0000
1101
0000
0110
0000
0111
1110
,
0111
1111
1100
1101
1011
0111
1010
1101
,
1011
0000
1110
0000
1001
0000
1110
0000
1011
0000
0111
0000
1010
0000
1101
1011
,
1101
0000
2211
0000
0010
0000
0001
0010
0001
0000
3322
0000
0000
0000
0200
0000
,
0000
0333
0000
0000
0000
0000
0000
0000
;

//---------------dance-single - ----------------
#NOTES:
     dance-single:
     :
     Medium:
     1:
     0.000,0.000,0.000,0.000,0.000,0.000,0.000,0.000,0.000,0.000:
0000
0000
0000
0000
;

//---------------dance-single - ----------------
#NOTES:
     dance-single:
     :
     Easy:
     1:
     0.000,0.000,0.000,0.000,0.000,0.000,0.000,0.000,0.000,0.000:
0000
0000
0000
0000
;
